<?xml version="1.0" standalone="no"?>
<!DOCTYPE svg PUBLIC "-//W3C//DTD SVG 1.1//EN" "http://www.w3.org/Graphics/SVG/1.1/DTD/svg11.dtd" >
<svg xmlns="http://www.w3.org/2000/svg">
<metadata></metadata>
<defs>
<font id="clear_sansbold" horiz-adv-x="1217" >
<font-face units-per-em="2048" ascent="1489" descent="-559" />
<missing-glyph horiz-adv-x="492" />
<glyph unicode="&#xfb01;" horiz-adv-x="1208" d="M35 844v205h133v102q0 195 96.5 282t290.5 87q91 0 193 -25l-50 -225q-72 24 -139 24q-76 0 -104.5 -31.5t-28.5 -111.5v-102h213v-205h-213v-844h-258v844h-133zM790 1335q0 70 32 100.5t109 30.5q78 0 112 -29.5t34 -101.5q0 -73 -36 -102t-110 -29q-82 0 -111.5 34 t-29.5 97zM804 0v1049h258v-1049h-258z" />
<glyph unicode="&#xfb02;" horiz-adv-x="1208" d="M35 844v205h133v102q0 195 96.5 282t290.5 87q91 0 193 -25l-50 -225q-72 24 -139 24q-76 0 -104.5 -31.5t-28.5 -111.5v-102h213v-205h-213v-844h-258v844h-133zM804 0v1489h258v-1489h-258z" />
<glyph unicode="&#xfb03;" horiz-adv-x="1868" d="M35 844v205h133v102q0 195 96.5 282t290.5 87q91 0 193 -25l-50 -225q-72 24 -139 24q-76 0 -104.5 -31.5t-28.5 -111.5v-102h213v-205h-213v-844h-258v844h-133zM694 844v205h133v102q0 195 96.5 282t290.5 87q91 0 193 -25l-50 -225q-72 24 -139 24q-76 0 -104.5 -31.5 t-28.5 -111.5v-102h213v-205h-213v-844h-258v844h-133zM1450 1335q0 70 32 100.5t109 30.5q78 0 112 -29.5t34 -101.5q0 -73 -36 -102t-110 -29q-82 0 -111.5 34t-29.5 97zM1464 0v1049h258v-1049h-258z" />
<glyph unicode="&#xfb04;" horiz-adv-x="1868" d="M35 844v205h133v102q0 195 96.5 282t290.5 87q91 0 193 -25l-50 -225q-72 24 -139 24q-76 0 -104.5 -31.5t-28.5 -111.5v-102h213v-205h-213v-844h-258v844h-133zM694 844v205h133v102q0 195 96.5 282t290.5 87q91 0 193 -25l-50 -225q-72 24 -139 24q-76 0 -104.5 -31.5 t-28.5 -111.5v-102h213v-205h-213v-844h-258v844h-133zM1464 0v1489h258v-1489h-258z" />
<glyph horiz-adv-x="0" />
<glyph unicode="&#xd;" horiz-adv-x="492" />
<glyph horiz-adv-x="0" />
<glyph horiz-adv-x="0" />
<glyph unicode=" "  horiz-adv-x="492" />
<glyph unicode="&#x09;" horiz-adv-x="492" />
<glyph unicode="&#xa0;" horiz-adv-x="492" />
<glyph unicode="!" horiz-adv-x="584" d="M129 139q0 82 36 118t126 36q92 0 128 -35t36 -119q0 -86 -39 -119.5t-125 -33.5q-94 0 -128 37.5t-34 115.5zM152 1384h280l-31 -944h-215z" />
<glyph unicode="&#x22;" horiz-adv-x="977" d="M137 1384h275l-45 -612h-185zM565 1384h275l-45 -612h-185z" />
<glyph unicode="#" horiz-adv-x="1405" d="M72 383v180h280l70 258h-234v180h283l104 385h193l-104 -385h247l105 385h192l-104 -385h229v-180h-278l-70 -258h232v-180h-279l-104 -383h-193l104 383h-247l-105 -383h-192l104 383h-233zM545 563h248l69 258h-248z" />
<glyph unicode="$" horiz-adv-x="1280" d="M123 291l205 139q37 -49 99 -94t134 -53v315q-164 41 -246.5 86.5t-125 112.5t-42.5 159q0 160 111 247t303 104v106h180v-106q144 -11 247.5 -69t162.5 -155l-193 -137q-34 47 -90.5 87t-126.5 50v-280q191 -50 269 -96t118.5 -112.5t40.5 -164.5q0 -166 -111.5 -258 t-316.5 -109v-196h-180v192q-310 32 -438 232zM414 971q0 -39 30.5 -68t116.5 -53v237q-65 -4 -106 -32.5t-41 -83.5zM741 281q74 8 118 41.5t44 85.5q0 51 -34.5 83.5t-127.5 61.5v-272z" />
<glyph unicode="%" horiz-adv-x="2163" d="M88 963q0 221 101.5 335.5t289.5 114.5q192 0 292.5 -116t100.5 -334q0 -216 -101 -330.5t-292 -114.5q-185 0 -288 114.5t-103 330.5zM334 963q0 -152 37 -208.5t108 -56.5q80 0 114 63.5t34 201.5q0 136 -32 203t-116 67q-78 0 -111.5 -64.5t-33.5 -205.5zM590 -51 l747 1487h238l-750 -1487h-235zM1290 414q0 219 100 334.5t291 115.5q193 0 293.5 -116t100.5 -334q0 -216 -102.5 -330.5t-291.5 -114.5q-185 0 -288 114.5t-103 330.5zM1536 414q0 -152 37 -208t108 -56q81 0 114.5 63.5t33.5 200.5q0 97 -16 158t-45 86.5t-87 25.5 q-78 0 -111.5 -64.5t-33.5 -205.5z" />
<glyph unicode="&#x26;" horiz-adv-x="1417" d="M92 373q0 131 57.5 217t231.5 194q-59 72 -101 148t-42 153q0 160 106 244t303 84q165 0 271 -74t106 -209q0 -72 -31 -136t-85 -120t-165 -129l263 -309q64 87 102 230l227 -52q-51 -211 -176 -356l217 -258h-327l-72 86q-72 -49 -158 -82t-215 -33q-237 0 -374.5 109 t-137.5 293zM358 371q0 -90 67 -140.5t183 -50.5q129 0 226 76l-308 356q-94 -59 -131 -114.5t-37 -126.5zM500 1096q0 -41 23.5 -81t70.5 -93q65 43 103.5 77.5t52.5 61t14 67.5t-34 68t-89 27q-70 0 -105.5 -34t-35.5 -93z" />
<glyph unicode="'" horiz-adv-x="549" d="M137 1384h275l-45 -612h-185z" />
<glyph unicode="(" horiz-adv-x="856" d="M113 561q0 528 409 961h293q-217 -205 -337 -438.5t-120 -522.5t120 -520t337 -436h-293q-409 433 -409 956z" />
<glyph unicode=")" horiz-adv-x="856" d="M41 -395q217 205 337 436t120 520t-120 522.5t-337 438.5h293q409 -433 409 -961q0 -523 -409 -956h-293z" />
<glyph unicode="*" horiz-adv-x="911" d="M31 983l282 141l-282 146l90 149l258 -159l-10 260h174l-13 -260l261 159l90 -151l-283 -142l283 -143l-90 -149l-259 159l11 -260h-174l12 260l-260 -159z" />
<glyph unicode="+" horiz-adv-x="1427" d="M133 479v205h479v479h205v-479h477v-205h-477v-477h-205v477h-479z" />
<glyph unicode="," horiz-adv-x="584" d="M129 145q0 74 35 117t131 43q160 0 160 -180q0 -123 -42 -234.5t-91 -183.5h-177q41 69 72.5 151t36.5 132q-66 4 -95.5 42t-29.5 113z" />
<glyph unicode="-" horiz-adv-x="786" d="M82 399v254h623v-254h-623z" />
<glyph unicode="." horiz-adv-x="584" d="M129 145q0 82 36 121t126 39q92 0 128 -38t36 -122q0 -86 -39 -122.5t-125 -36.5q-94 0 -128 41t-34 118z" />
<glyph unicode="/" horiz-adv-x="1036" d="M-12 -299l690 1819h256l-692 -1819h-254z" />
<glyph unicode="0" horiz-adv-x="1280" d="M100 690q0 371 131 547t408 176q279 0 410 -175t131 -546q0 -373 -131 -548t-410 -175q-277 0 -408 175t-131 546zM391 690q0 -248 59.5 -363.5t188.5 -115.5t189.5 116.5t60.5 364.5t-60.5 363.5t-189.5 115.5t-188.5 -116.5t-59.5 -364.5z" />
<glyph unicode="1" horiz-adv-x="1280" d="M248 928v190q144 9 217.5 34.5t117 79.5t68.5 152h215v-1384h-282v928h-336z" />
<glyph unicode="2" horiz-adv-x="1204" d="M102 1178q85 127 201.5 181t290.5 54q214 0 337.5 -100t123.5 -281q0 -133 -48.5 -233.5t-138 -195t-223 -208.5t-164.5 -137h619v-258h-994v236q163 137 297 262t207 207.5t113.5 158t40.5 158.5q0 65 -49 103t-135 38q-93 0 -152 -43t-98 -102z" />
<glyph unicode="3" horiz-adv-x="1204" d="M66 195l227 155q37 -57 92 -92t150 -35q120 0 174.5 46t54.5 141q0 192 -254 192h-123v242h107q127 0 185 50t58 130q0 59 -42 98t-138 39t-153.5 -30.5t-98.5 -92.5l-225 158q82 111 198.5 164t299.5 53q139 0 242.5 -43.5t156.5 -120.5t53 -176q0 -271 -280 -340 q137 -9 221 -103.5t84 -240.5q0 -213 -139.5 -315.5t-383.5 -102.5q-174 0 -294.5 63.5t-171.5 160.5z" />
<glyph unicode="4" horiz-adv-x="1280" d="M63 229v260l676 895h289v-913h170v-242h-170v-229h-270v229h-695zM338 471h420v543z" />
<glyph unicode="5" horiz-adv-x="1204" d="M49 199l225 159q77 -135 261 -135q276 0 276 238q0 100 -72.5 157.5t-201.5 57.5q-138 0 -209 -74h-197l82 782h809v-258h-584l-28 -243q95 39 211 39q222 0 350.5 -119t128.5 -348q0 -226 -144.5 -355t-416.5 -129q-339 0 -490 228z" />
<glyph unicode="6" horiz-adv-x="1204" d="M100 608q0 392 147 598.5t429 206.5q267 0 395 -113l-160 -217q-49 43 -104 65.5t-131 22.5q-135 0 -196.5 -92t-78.5 -262q80 54 143.5 75t151.5 21q195 0 309.5 -119.5t114.5 -344.5q0 -222 -134 -350t-363 -128q-250 0 -386.5 165.5t-136.5 471.5zM393 598 q0 -153 23 -225t73 -116t136 -44q94 0 153.5 50t59.5 179q0 106 -59 169t-158 63q-78 0 -137.5 -25.5t-90.5 -50.5z" />
<glyph unicode="7" horiz-adv-x="1280" d="M113 1126v258h1038v-172l-520 -1212h-316l510 1126h-712z" />
<glyph unicode="8" horiz-adv-x="1204" d="M84 375q0 123 69.5 215t186.5 145q-112 55 -167.5 133.5t-55.5 169.5q0 183 128 279t357 96q223 0 353 -93t130 -280q0 -62 -29.5 -115t-76.5 -96t-143 -96q115 -56 170 -105t83.5 -112t28.5 -141q0 -192 -133.5 -298t-382.5 -106q-246 0 -382 101.5t-136 302.5zM367 373 q0 -78 56 -128t179 -50t178.5 52t55.5 128q0 86 -57.5 143t-176.5 113q-127 -56 -181 -113t-54 -145zM393 1042q0 -45 20 -76t66.5 -65.5t122.5 -64.5q117 51 162 100t45 100q0 66 -48 111t-159 45q-119 0 -164 -45t-45 -105z" />
<glyph unicode="9" horiz-adv-x="1204" d="M84 936q0 216 133.5 346.5t353.5 130.5q271 0 402 -169t131 -468q0 -386 -146.5 -595.5t-427.5 -209.5q-278 0 -413 115l157 215q101 -88 256 -88q233 0 273 354q-60 -41 -122.5 -68.5t-150.5 -27.5q-213 0 -329.5 120t-116.5 345zM365 942q0 -105 58.5 -168t160.5 -63 q78 0 137 25.5t90 49.5q0 211 -55.5 298t-180.5 87q-98 0 -154 -60.5t-56 -168.5z" />
<glyph unicode=":" horiz-adv-x="584" d="M129 145q0 82 36 121t126 39q92 0 128 -38t36 -122q0 -86 -39 -122.5t-125 -36.5q-94 0 -128 41t-34 118zM129 889q0 82 36 121t126 39q92 0 128 -38t36 -122q0 -86 -39 -123t-125 -37q-94 0 -128 41t-34 119z" />
<glyph unicode=";" horiz-adv-x="584" d="M129 145q0 74 35 117t131 43q160 0 160 -180q0 -123 -42 -234.5t-91 -183.5h-177q41 69 72.5 151t36.5 132q-66 4 -95.5 42t-29.5 113zM129 889q0 82 36 121t126 39q92 0 128 -38t36 -122q0 -86 -39 -123t-125 -37q-94 0 -128 41t-34 119z" />
<glyph unicode="&#x3c;" horiz-adv-x="1427" d="M131 481v203l1163 479v-225l-866 -354l866 -355v-225z" />
<glyph unicode="=" horiz-adv-x="1427" d="M133 233v205h1161v-205h-1161zM133 725v205h1161v-205h-1161z" />
<glyph unicode="&#x3e;" horiz-adv-x="1427" d="M131 4v225l866 355l-866 354v225l1163 -479v-203z" />
<glyph unicode="?" horiz-adv-x="1071" d="M35 1165q69 123 184 185.5t291 62.5q238 0 363.5 -98.5t125.5 -276.5q0 -99 -40.5 -176t-114.5 -140t-240 -144v-179h-272v301q163 68 235 112t107 93t35 113q0 153 -197 153q-90 0 -144.5 -35.5t-99.5 -109.5zM309 139q0 82 36 118t126 36q92 0 128 -36t36 -118 q0 -86 -39 -119.5t-125 -33.5q-94 0 -128 37.5t-34 115.5z" />
<glyph unicode="@" horiz-adv-x="1950" d="M104 553q0 239 114 436.5t319 310.5t452 113q402 0 629 -223t227 -621q0 -169 -45 -292t-135.5 -192t-224.5 -69q-99 0 -164.5 27t-93.5 98q-141 -98 -283 -98q-127 0 -215 59t-134 166.5t-46 249.5q0 231 113 367.5t315 136.5q113 0 231 -70v41h215v-696q0 -66 22.5 -81 t51.5 -15q64 0 106 46t64.5 128t22.5 186q0 328 -168.5 499t-485.5 171q-195 0 -353 -88t-245.5 -244.5t-87.5 -347.5q0 -207 84.5 -361t238 -235.5t359.5 -81.5q123 0 228.5 9t220.5 36l39 -180q-190 -47 -490 -47q-260 0 -460 104.5t-310.5 302t-110.5 455.5zM725 520 q0 -143 55 -209.5t158 -66.5q89 0 223 92v422q-114 69 -198 69q-117 0 -177.5 -72.5t-60.5 -234.5z" />
<glyph unicode="A" horiz-adv-x="1337" d="M27 0l458 1384h367l459 -1384h-289l-92 281h-533l-90 -281h-280zM477 528h373l-186 572z" />
<glyph unicode="B" horiz-adv-x="1298" d="M150 0v1384h489q266 0 381 -77.5t115 -245.5q0 -129 -62.5 -209t-195.5 -107q174 -24 253.5 -110t79.5 -234q0 -208 -143 -304.5t-397 -96.5h-520zM432 250h143q165 0 227.5 16t91 54t28.5 106q0 93 -63 131.5t-236 38.5h-191v-346zM432 842h172q125 0 185.5 35t60.5 122 q0 79 -58 109.5t-180 30.5h-180v-297z" />
<glyph unicode="C" horiz-adv-x="1333" d="M96 692q0 369 163 545t470 176q203 0 331 -68.5t195 -179.5l-219 -170q-48 72 -88 104t-91 48t-122 16q-170 0 -259 -108.5t-89 -362.5q0 -237 83.5 -354t266.5 -117q123 0 191.5 47t124.5 125l223 -164q-89 -133 -218.5 -195.5t-318.5 -62.5q-643 0 -643 721z" />
<glyph unicode="D" horiz-adv-x="1313" d="M137 0v1384h418q245 0 389.5 -71t213.5 -221.5t69 -399.5q0 -250 -69 -402t-208 -221t-391 -69h-422zM420 258h108q167 0 251.5 38.5t120.5 128.5t36 269q0 181 -35.5 268.5t-120.5 125.5t-252 38h-108v-868z" />
<glyph unicode="E" horiz-adv-x="1149" d="M150 0v1384h899v-249h-617v-295h520v-250h-520v-332h617v-258h-899z" />
<glyph unicode="F" horiz-adv-x="1104" d="M150 0v1384h890v-258h-608v-299h510v-249h-510v-578h-282z" />
<glyph unicode="G" horiz-adv-x="1415" d="M96 680q0 733 645 733q188 0 328 -63t213 -185l-217 -170q-53 86 -129 127t-191 41q-189 0 -273.5 -121.5t-84.5 -361.5q0 -238 83.5 -348.5t268.5 -110.5q140 0 258 58v215h-270v249h553v-612q-96 -72 -238.5 -116t-293.5 -44q-324 0 -488 169t-164 540z" />
<glyph unicode="H" horiz-adv-x="1409" d="M150 0v1384h282v-538h545v538h283v-1384h-283v588h-545v-588h-282z" />
<glyph unicode="I" horiz-adv-x="872" d="M102 0v217h193v950h-193v217h668v-217h-192v-950h192v-217h-668z" />
<glyph unicode="J" horiz-adv-x="924" d="M20 23l86 251q32 -17 102.5 -36t110.5 -19q74 0 107 20t47 70t14 144v931h283v-1007q0 -219 -110.5 -313.5t-346.5 -94.5q-51 0 -142 15t-151 39z" />
<glyph unicode="K" horiz-adv-x="1280" d="M150 0v1384h282v-540l453 540h329l-516 -596l553 -788h-352l-383 578l-84 -97v-481h-282z" />
<glyph unicode="L" horiz-adv-x="1038" d="M150 0v1384h282v-1126h582v-258h-864z" />
<glyph unicode="M" horiz-adv-x="1667" d="M150 0v1384h325l361 -657l364 657h318v-1384h-273v930l-332 -578h-163l-328 578v-930h-272z" />
<glyph unicode="N" horiz-adv-x="1411" d="M150 0v1384h366l469 -933v933h277v-1384h-332l-504 989v-989h-276z" />
<glyph unicode="O" horiz-adv-x="1364" d="M86 692q0 344 144.5 532.5t451.5 188.5q309 0 452.5 -188.5t143.5 -532.5q0 -361 -152.5 -541t-443.5 -180q-307 0 -451.5 189.5t-144.5 531.5zM377 692q0 -246 70.5 -358.5t234.5 -112.5q166 0 235.5 112.5t69.5 358.5t-69.5 358.5t-235.5 112.5t-235.5 -112.5 t-69.5 -358.5z" />
<glyph unicode="P" horiz-adv-x="1239" d="M150 0v1384h520q235 0 363 -109.5t128 -354.5q0 -250 -117.5 -371t-381.5 -121h-230v-428h-282zM432 674h115q155 0 214.5 21.5t84 72.5t24.5 150q0 117 -64.5 169t-232.5 52h-141v-465z" />
<glyph unicode="Q" horiz-adv-x="1364" d="M86 692q0 346 144.5 533.5t453.5 187.5q307 0 450.5 -188.5t143.5 -532.5q0 -611 -428 -706q10 -54 43 -78.5t119 -24.5q45 0 104.5 9.5t100.5 21.5l65 -227q-34 -11 -118 -23t-160 -12q-399 0 -461 330q-213 32 -335 205t-122 505zM377 692q0 -246 69.5 -358.5 t237.5 -112.5t235.5 114t67.5 357q0 246 -69.5 358.5t-233.5 112.5q-170 0 -238.5 -112.5t-68.5 -358.5z" />
<glyph unicode="R" horiz-adv-x="1284" d="M150 0v1384h503q267 0 390.5 -96t123.5 -315q0 -177 -74.5 -282t-211.5 -134l370 -557h-323l-353 524h-143v-524h-282zM432 770h207q95 0 146 18t73.5 56t22.5 117q0 106 -53.5 142t-176.5 36h-219v-369z" />
<glyph unicode="S" horiz-adv-x="1229" d="M66 229l217 166q48 -68 91 -102t102 -53t136 -19q115 0 179.5 39.5t64.5 120.5q0 46 -22.5 77t-67.5 53.5t-156 51.5q-108 29 -203.5 58.5t-165 76.5t-109.5 118t-40 179q0 197 133 307.5t381 110.5q359 0 508 -246l-215 -168q-57 88 -128 126t-169 38t-159.5 -35.5 t-61.5 -111.5q0 -67 64 -102.5t223 -71.5q88 -23 174 -49.5t153.5 -73.5t108.5 -123t41 -195q0 -208 -136.5 -319t-402.5 -111q-184 0 -319.5 61t-220.5 197z" />
<glyph unicode="T" horiz-adv-x="1204" d="M35 1126v258h1134v-258h-426v-1126h-282v1126h-426z" />
<glyph unicode="U" horiz-adv-x="1438" d="M150 578v806h282v-786q0 -141 27 -222t86 -119t172 -38q161 0 225 85.5t64 289.5v790h282v-806q0 -325 -132 -467t-437 -142q-302 0 -435.5 140.5t-133.5 468.5z" />
<glyph unicode="V" horiz-adv-x="1243" d="M27 1384h286l312 -1032l311 1032h281l-431 -1384h-333z" />
<glyph unicode="W" horiz-adv-x="1833" d="M43 1384h281l221 -903l229 903h279l231 -909l227 909h279l-358 -1384h-289l-232 915l-233 -915h-285z" />
<glyph unicode="X" horiz-adv-x="1286" d="M29 0l463 694l-451 690h321l287 -466l297 466h311l-454 -684l452 -700h-317l-297 477l-301 -477h-311z" />
<glyph unicode="Y" horiz-adv-x="1188" d="M18 1384h308l270 -579l276 579h297l-434 -856v-528h-284v522z" />
<glyph unicode="Z" horiz-adv-x="1147" d="M72 0v238l635 888h-605v258h942v-227l-641 -899h658v-258h-989z" />
<glyph unicode="[" horiz-adv-x="764" d="M154 -395v1884h548v-207h-309v-1470h309v-207h-548z" />
<glyph unicode="\" horiz-adv-x="1036" d="M102 1520h256l691 -1819h-254z" />
<glyph unicode="]" horiz-adv-x="764" d="M61 -188h310v1470h-310v207h549v-1884h-549v207z" />
<glyph unicode="^" horiz-adv-x="1300" d="M123 594l434 790h186l435 -790h-220l-307 557l-309 -557h-219z" />
<glyph unicode="_" horiz-adv-x="1024" d="M-10 -154h1044v-102h-1044v102z" />
<glyph unicode="`" horiz-adv-x="1044" d="M195 1569h315l188 -361h-204z" />
<glyph unicode="a" horiz-adv-x="1139" d="M84 295q0 112 45.5 185t135 114.5t257.5 58.5l221 21v47q0 88 -53 120.5t-155 32.5q-84 0 -144.5 -28t-89.5 -80l-201 129q53 89 166 136.5t273 47.5q245 0 353.5 -85.5t108.5 -280.5v-713h-237v109q-153 -140 -328 -140q-174 0 -263 91.5t-89 234.5zM350 299 q0 -72 40 -98.5t106 -26.5q47 0 114.5 29.5t132.5 83.5v200l-131 -12q-139 -12 -200.5 -53t-61.5 -123z" />
<glyph unicode="b" d="M145 0v1489h258v-524q142 114 314 114q211 0 309 -145.5t98 -401.5q0 -261 -109.5 -412t-312.5 -151q-80 0 -174.5 36.5t-150.5 92.5l-35 -98h-197zM403 291q43 -37 104.5 -65.5t119.5 -28.5q111 0 171 84.5t60 246.5t-51 243t-164 81q-63 0 -127.5 -29.5t-112.5 -72.5 v-459z" />
<glyph unicode="c" horiz-adv-x="1059" d="M92 518q0 265 126 413t378 148q135 0 240.5 -44t160.5 -136l-192 -137q-35 47 -82 69.5t-121 22.5q-132 0 -188 -81t-56 -251t57.5 -248.5t196.5 -78.5q60 0 110 17t95 75l195 -137q-60 -89 -158 -135t-248 -46q-254 0 -384 138.5t-130 410.5z" />
<glyph unicode="d" d="M92 516q0 267 115.5 415t324.5 148q74 0 152 -30.5t129 -77.5v518h258v-1489h-237v102q-72 -61 -152 -97t-182 -36q-198 0 -303 143t-105 404zM358 520q0 -151 51.5 -237t159.5 -86q64 0 130.5 29.5t113.5 72.5v459q-41 37 -101.5 65.5t-123.5 28.5q-104 0 -167 -89.5 t-63 -242.5z" />
<glyph unicode="e" horiz-adv-x="1143" d="M92 516q0 563 504 563q224 0 341.5 -126.5t117.5 -368.5v-127h-697q7 -140 68 -201t192 -61q76 0 133.5 19t100.5 73l192 -137q-63 -91 -163.5 -136t-274.5 -45q-259 0 -386.5 136t-127.5 411zM365 635h434q0 239 -209 239q-69 0 -113 -23.5t-70.5 -70t-41.5 -145.5z" />
<glyph unicode="f" horiz-adv-x="659" d="M35 844v205h133v102q0 195 96.5 282t290.5 87q91 0 193 -25l-50 -225q-72 24 -139 24q-76 0 -104.5 -31.5t-28.5 -111.5v-102h213v-205h-213v-844h-258v844h-133z" />
<glyph unicode="g" d="M92 535q0 162 51.5 285.5t151 191t240.5 67.5q83 0 166 -36.5t139 -92.5l34 99h197v-1029q0 -210 -129 -312.5t-414 -102.5q-235 0 -411 90l76 211q163 -76 335 -76q160 0 222.5 46t62.5 155v86q-128 -117 -309 -117q-192 0 -302 138t-110 397zM358 539q0 -160 57.5 -236 t149.5 -76q128 0 248 103v428q-106 94 -231 94q-94 0 -159 -86t-65 -227z" />
<glyph unicode="h" d="M145 0v1489h258v-576q82 82 175 124t182 42q176 0 247.5 -99t71.5 -280v-700h-258v578q0 166 -31 220t-110 54q-115 0 -277 -152v-700h-258z" />
<glyph unicode="i" horiz-adv-x="549" d="M131 1335q0 70 32 100.5t109 30.5q78 0 112 -29.5t34 -101.5q0 -73 -36 -102t-110 -29q-82 0 -111.5 34t-29.5 97zM145 0v1049h258v-1049h-258z" />
<glyph unicode="j" horiz-adv-x="563" d="M-162 -365l56 224q73 -29 151 -29t96.5 48t18.5 159v1012h258v-1094q0 -188 -84 -269t-275 -81q-43 0 -113 9.5t-108 20.5zM145 1335q0 70 32 100.5t110 30.5t111.5 -29.5t33.5 -101.5q0 -73 -36 -102t-109 -29q-82 0 -112 34t-30 97z" />
<glyph unicode="k" horiz-adv-x="1100" d="M145 0v1489h258v-852l353 412h299l-396 -441l418 -608h-293l-280 434l-101 -108v-326h-258z" />
<glyph unicode="l" horiz-adv-x="549" d="M145 0v1489h258v-1489h-258z" />
<glyph unicode="m" horiz-adv-x="1790" d="M145 0v1049h258v-136q72 78 151 122t175 44q131 0 193.5 -45t85.5 -133q90 90 168.5 134t183.5 44q153 0 223 -87t70 -292v-700h-258v618q0 93 -11 145t-33.5 70.5t-74.5 18.5q-59 0 -125 -44t-123 -108v-700h-258v618q0 102 -9 147.5t-32 66t-78 20.5q-48 0 -111 -36.5 t-137 -115.5v-700h-258z" />
<glyph unicode="n" d="M145 0v1049h258v-136q82 82 175 124t182 42q161 0 240 -88t79 -291v-700h-258v578q0 164 -29.5 219t-111.5 55q-115 0 -277 -152v-700h-258z" />
<glyph unicode="o" horiz-adv-x="1190" d="M92 522q0 266 121 411.5t383 145.5q260 0 381 -145.5t121 -411.5q0 -262 -121 -407.5t-381 -145.5q-504 0 -504 553zM358 522q0 -168 55.5 -247.5t182.5 -79.5q125 0 180 78.5t55 248.5q0 173 -54 252.5t-181 79.5q-126 0 -182 -81.5t-56 -250.5z" />
<glyph unicode="p" d="M145 -395v1444h238v-103q72 62 151.5 97.5t182.5 35.5q199 0 303 -140t104 -407q0 -169 -51 -298t-146 -197t-227 -68q-174 0 -297 109v-473h-258zM403 291q41 -37 101.5 -65.5t124.5 -28.5q106 0 167.5 90.5t61.5 240.5q0 153 -53 238.5t-158 85.5q-63 0 -129.5 -29.5 t-114.5 -72.5v-459z" />
<glyph unicode="q" d="M92 516q0 266 114 414.5t324 148.5q95 0 178 -40t132 -89l34 99h197v-1444h-258v479q-141 -115 -313 -115q-198 0 -303 140t-105 407zM358 520q0 -153 50 -238t161 -85q64 0 130.5 29.5t113.5 72.5v459q-47 43 -107.5 68.5t-117.5 25.5q-104 0 -167 -89.5t-63 -242.5z " />
<glyph unicode="r" horiz-adv-x="840" d="M145 0v1049h258v-150q66 72 142 119t170 47q80 0 114 -21l-51 -247q-40 20 -106 20q-72 0 -136.5 -34.5t-132.5 -100.5v-682h-258z" />
<glyph unicode="s" horiz-adv-x="1026" d="M76 152l192 135q47 -64 108.5 -85.5t131.5 -21.5q184 0 184 107q0 47 -52 72.5t-163 52.5q-209 46 -294 130t-85 218q0 139 106.5 229t313.5 90q141 0 248.5 -45t165.5 -135l-193 -137q-69 106 -225 106q-80 0 -121 -27.5t-41 -70.5q0 -41 37 -65.5t146 -51.5 q179 -44 255.5 -87.5t116 -108t39.5 -158.5q0 -104 -52.5 -178t-149 -113t-220.5 -39q-329 0 -448 183z" />
<glyph unicode="t" horiz-adv-x="739" d="M31 844v205h133v292h258v-292h244v-205h-244v-494q0 -98 30.5 -133t86.5 -35q71 0 141 29l45 -211q-104 -31 -219 -31q-182 0 -262 82t-80 266v527h-133z" />
<glyph unicode="u" d="M137 348v701h258v-578q0 -111 13 -170t42.5 -81.5t86.5 -22.5q115 0 276 151v701h258v-1049h-258v135q-68 -73 -166.5 -119.5t-189.5 -46.5q-178 0 -249 98.5t-71 280.5z" />
<glyph unicode="v" horiz-adv-x="1040" d="M27 1049h264l233 -691l232 691h258l-377 -1049h-238z" />
<glyph unicode="w" horiz-adv-x="1565" d="M27 1049h268l162 -676l235 676h195l237 -670l156 670h258l-281 -1049h-235l-236 668l-237 -668h-236z" />
<glyph unicode="x" horiz-adv-x="1079" d="M31 0l362 518l-356 531h301l209 -332l215 332h285l-361 -517l363 -532h-306l-208 334l-218 -334h-286z" />
<glyph unicode="y" horiz-adv-x="1085" d="M-20 -365l55 224q84 -29 151 -29q58 0 102 35t91 145l27 62l-379 977h268l248 -670l254 670h262l-451 -1121q-55 -135 -107 -200t-121.5 -94t-174.5 -29q-114 0 -225 30z" />
<glyph unicode="z" horiz-adv-x="930" d="M57 0v188l490 656h-477v205h786v-187l-491 -657h507v-205h-815z" />
<glyph unicode="{" horiz-adv-x="915" d="M102 453v221h39q111 0 170.5 77.5t59.5 223.5v139q0 197 95 301.5t318 104.5h70v-207h-41q-117 0 -160 -48t-43 -165v-166q0 -137 -64.5 -231.5t-174.5 -141.5q108 -39 173.5 -137t65.5 -234v-165q0 -117 43 -165t160 -48h41v-207h-70q-221 0 -317 103.5t-96 301.5v142 q0 141 -59.5 221t-170.5 80h-39z" />
<glyph unicode="|" horiz-adv-x="801" d="M281 -395v1915h239v-1915h-239z" />
<glyph unicode="}" horiz-adv-x="915" d="M61 -188h41q117 0 160 48t43 165v165q0 136 65.5 234t174.5 137q-111 47 -175.5 141.5t-64.5 231.5v166q0 117 -43 165t-160 48h-41v207h70q223 0 318.5 -104.5t95.5 -301.5v-139q0 -146 59.5 -223.5t169.5 -77.5h39v-221h-39q-110 0 -169.5 -80t-59.5 -221v-142 q0 -198 -96.5 -301.5t-317.5 -103.5h-70v207z" />
<glyph unicode="~" horiz-adv-x="1386" d="M143 580v229q56 47 106 73t95 38t117 12q65 0 128.5 -24.5t122 -54.5t114 -54.5t106.5 -24.5q80 0 154.5 38t156.5 110v-222q-67 -53 -141 -92t-166 -39q-72 0 -137.5 24.5t-126 54.5t-114.5 54.5t-101 24.5q-92 0 -170 -45t-144 -102z" />
<glyph unicode="&#xa1;" horiz-adv-x="584" d="M129 954q0 78 34 116t128 38q86 0 125 -34t39 -120q0 -82 -36 -117.5t-128 -35.5q-90 0 -126 35.5t-36 117.5zM152 -395l34 1059h215l31 -1059h-280z" />
<glyph unicode="&#xa2;" horiz-adv-x="1059" d="M92 518q0 265 126 413t378 148h18l48 209h180l-54 -237q145 -49 209 -152l-192 -137q-27 35 -66 61l-139 -628h12q60 0 110 17t95 75l195 -137q-60 -89 -158 -135t-248 -46l-55 2l-51 -231h-183l60 266q-152 57 -218.5 189.5t-66.5 322.5zM358 522q0 -196 74 -270 l133 600q-107 -9 -157 -86t-50 -244z" />
<glyph unicode="&#xa3;" horiz-adv-x="1280" d="M100 0v213q65 13 103 58.5t55.5 110t17.5 183.5h-151v189h137l-11 44q-42 128 -42 228q0 187 135 287t367 100q176 0 296.5 -61.5t184.5 -167.5l-217 -131q-41 65 -111.5 104t-152.5 39q-119 0 -176.5 -54.5t-57.5 -144.5q0 -73 44 -202l11 -41h379v-189h-370 q0 -224 -117 -325h784v-240h-1108z" />
<glyph unicode="&#xa4;" horiz-adv-x="1280" d="M139 281l142 135q-72 115 -72 231q0 125 72 232l-142 137l123 125l141 -140q105 72 236 72q57 0 119.5 -17.5t115.5 -54.5l142 140l125 -125l-144 -137q72 -109 72 -232q0 -122 -72 -231l144 -135l-125 -125l-142 139q-103 -72 -235 -72q-131 0 -236 72l-141 -139z M385 649q0 -102 75 -177t179 -75q65 0 124.5 33.5t94.5 93t35 125.5q0 104 -76.5 177t-175.5 73q-102 0 -179 -72t-77 -178z" />
<glyph unicode="&#xa5;" horiz-adv-x="1280" d="M45 1384h307l291 -538l295 538h297l-307 -538h211v-178h-314l-45 -80v-31h359v-176h-359v-381h-282v381h-361v176h361v27l-47 84h-314v178h213z" />
<glyph unicode="&#xa6;" horiz-adv-x="801" d="M281 283h239v-678h-239v678zM281 842v678h239v-678h-239z" />
<glyph unicode="&#xa7;" horiz-adv-x="1110" d="M92 545q0 188 211 307q-72 53 -110.5 110.5t-38.5 129.5q0 149 105.5 235t322.5 86q282 0 407 -160l-176 -131q-84 84 -227 84q-92 0 -133 -27.5t-41 -68.5q0 -31 45 -69.5t252 -166.5q128 -79 186.5 -133t90.5 -112.5t32 -126.5q0 -191 -211 -307q78 -60 113.5 -117.5 t35.5 -120.5q0 -162 -112.5 -243t-308.5 -81q-160 0 -257.5 43t-156.5 117l176 131q75 -84 233 -84q72 0 120 23.5t48 68.5t-74.5 97.5t-222.5 142.5q-153 92 -231 176t-78 197zM336 549q0 -41 67.5 -94.5t208.5 -139.5q68 41 115 89t47 90q0 24 -15.5 46.5t-48 49t-85 59.5 t-127.5 80q-80 -49 -121 -91t-41 -89z" />
<glyph unicode="&#xa8;" horiz-adv-x="1044" d="M152 1335q0 70 31.5 100.5t109.5 30.5t111.5 -29.5t33.5 -101.5q0 -73 -35.5 -102t-109.5 -29q-82 0 -111.5 34t-29.5 97zM596 1335q0 70 31.5 100.5t109.5 30.5t112 -29.5t34 -101.5q0 -73 -36 -102t-110 -29q-82 0 -111.5 34t-29.5 97z" />
<glyph unicode="&#xa9;" horiz-adv-x="1802" d="M96 610q0 217 106 402.5t293.5 293t405.5 107.5q217 0 403 -106.5t293 -292.5t107 -404q0 -217 -105.5 -403t-292.5 -295t-405 -109q-219 0 -406 108.5t-293 295t-106 403.5zM258 610q0 -176 87.5 -328t235 -237.5t320.5 -85.5t320.5 85.5t235 237t87.5 328.5 q0 173 -86 323.5t-235.5 237t-321.5 86.5q-174 0 -323 -87t-234.5 -237.5t-85.5 -322.5zM504 612q0 217 100.5 331t317.5 114q133 0 209.5 -51.5t134.5 -143.5l-176 -100q-33 47 -67 78.5t-103 31.5q-109 0 -155 -59t-46 -201q0 -143 48 -200.5t155 -57.5q65 0 104 29t76 78 l180 -96q-71 -88 -118.5 -123.5t-106 -53.5t-131.5 -18q-422 0 -422 442z" />
<glyph unicode="&#xaa;" horiz-adv-x="834" d="M92 1014q0 105 65 164t222 73l129 13v20q0 49 -27.5 67.5t-93.5 18.5q-65 0 -95 -21.5t-46 -50.5l-148 93q31 53 100.5 91t192.5 38q146 0 224.5 -50.5t78.5 -191.5v-461h-174v57q-95 -75 -196 -75q-117 0 -174.5 59.5t-57.5 155.5zM285 1018q0 -39 19.5 -54.5 t57.5 -15.5q64 0 146 66v110l-68 -6q-90 -8 -122.5 -31.5t-32.5 -68.5z" />
<glyph unicode="&#xab;" horiz-adv-x="1436" d="M61 524l420 471h299l-420 -471l420 -471h-299zM635 524l420 471h299l-420 -471l420 -471h-299z" />
<glyph unicode="&#xac;" horiz-adv-x="1427" d="M133 801v205h1161v-682h-207v477h-954z" />
<glyph unicode="&#xad;" horiz-adv-x="786" d="M82 399v254h623v-254h-623z" />
<glyph unicode="&#xae;" horiz-adv-x="1802" d="M96 610q0 217 106 402.5t293.5 293t405.5 107.5q217 0 403 -106.5t293 -292.5t107 -404q0 -217 -105.5 -403t-292.5 -295t-405 -109q-219 0 -406 108.5t-293 295t-106 403.5zM258 610q0 -176 87.5 -328t235 -237.5t320.5 -85.5t320.5 85.5t235 237t87.5 328.5 q0 173 -86 323.5t-235.5 237t-321.5 86.5q-174 0 -323 -87t-234.5 -237.5t-85.5 -322.5zM588 201v850h305q178 0 260 -63t82 -197q0 -185 -145 -246l239 -344h-250l-211 307h-75v-307h-205zM793 682h96q54 0 81 7t39.5 25.5t12.5 65.5t-21.5 70.5t-103.5 23.5h-104v-192z " />
<glyph unicode="&#xaf;" horiz-adv-x="1044" d="M186 1255v185h672v-185h-672z" />
<glyph unicode="&#xb0;" horiz-adv-x="868" d="M123 1241q0 130 91.5 219.5t219.5 89.5q129 0 220 -90.5t91 -218.5q0 -83 -40.5 -154.5t-114 -115t-154.5 -43.5q-83 0 -157 42.5t-115 114t-41 156.5zM303 1241q0 -55 38 -94t95 -39q53 0 91 39t38 92q0 55 -38 93t-91 38q-59 0 -96 -39t-37 -90z" />
<glyph unicode="&#xb1;" horiz-adv-x="1427" d="M133 0v205h1161v-205h-1161zM133 829v205h479v479h205v-479h477v-205h-477v-477h-205v477h-479z" />
<glyph unicode="&#xb2;" horiz-adv-x="938" d="M76 1348q133 172 377 172q180 0 262 -71t82 -179q0 -60 -16 -107.5t-52.5 -92.5t-130.5 -115t-166 -111h397v-197h-737v182l108 78q228 160 283.5 217t55.5 113q0 78 -97 78q-101 0 -170 -88z" />
<glyph unicode="&#xb3;" horiz-adv-x="938" d="M59 801l199 102q64 -88 164 -88q72 0 98.5 32t26.5 66q0 91 -141 91h-115v176h102q92 0 124 22.5t32 63.5q0 28 -27.5 48.5t-85.5 20.5q-103 0 -168 -78l-182 107q61 74 143 115t224 41q172 0 255 -67t83 -159q0 -71 -38 -116t-124 -74q92 -23 134 -77t42 -126 q0 -137 -102.5 -203.5t-282.5 -66.5q-127 0 -221.5 49t-139.5 121z" />
<glyph unicode="&#xb4;" horiz-adv-x="1044" d="M348 1208l189 361h315l-299 -361h-205z" />
<glyph unicode="&#xb5;" horiz-adv-x="1202" d="M131 -395v1444h258v-750q29 -39 83 -69.5t114 -30.5q131 0 227 120v730h256v-1049h-238l-4 111q-49 -70 -104 -106t-133 -36q-62 0 -109 17.5t-92 52.5v-434h-258z" />
<glyph unicode="&#xb6;" horiz-adv-x="1321" d="M41 1047q0 206 134 324t378 118h727v-207h-188v-1677h-234v1677h-162v-1677h-233v1001q-204 22 -313 138t-109 303z" />
<glyph unicode="&#xb7;" horiz-adv-x="584" d="M129 743q0 82 36 121t126 39q92 0 128 -38t36 -122q0 -86 -39 -122.5t-125 -36.5q-94 0 -128 41t-34 118z" />
<glyph unicode="&#xb8;" horiz-adv-x="1044" d="M199 -350l69 145q106 -45 193 -45q53 0 74.5 11.5t21.5 35.5q0 63 -180 72l88 170h170l-31 -62q62 -14 104 -61t42 -121q0 -190 -287 -190q-174 0 -264 45z" />
<glyph unicode="&#xb9;" horiz-adv-x="938" d="M170 1200v152q97 3 150 17t82 43t49 91h200v-856h-252v553h-229z" />
<glyph unicode="&#xba;" horiz-adv-x="842" d="M92 1157q0 172 80 267.5t250 95.5q168 0 248 -95.5t80 -267.5q0 -170 -80 -264t-248 -94q-172 0 -251 95t-79 263zM285 1157q0 -100 31.5 -148t105.5 -48q72 0 103.5 47.5t31.5 148.5q0 119 -39 160t-96 41q-60 0 -98.5 -41t-38.5 -160z" />
<glyph unicode="&#xbb;" horiz-adv-x="1436" d="M82 53l420 471l-420 471h299l420 -471l-420 -471h-299zM655 53l420 471l-420 471h299l420 -471l-420 -471h-299z" />
<glyph unicode="&#xbc;" horiz-adv-x="2095" d="M45 1085v152q97 3 150 17t82 43t49 91h200v-856h-252v553h-229zM469 -51l747 1489h238l-750 -1489h-235zM1155 160v166l492 530h227v-524h115v-172h-115v-160h-232v160h-487zM1386 332h256v276z" />
<glyph unicode="&#xbd;" horiz-adv-x="2095" d="M43 1085v152q97 3 150 17t82 43t49 91h200v-856h-252v553h-229zM406 -51l747 1489h238l-750 -1489h-235zM1213 701q133 172 377 172q180 0 262 -71t82 -179q0 -60 -16 -107.5t-52.5 -92.5t-130.5 -115t-166 -111h397v-197h-737v182l108 78q228 160 283.5 217t55.5 113 q0 78 -97 78q-101 0 -170 -88z" />
<glyph unicode="&#xbe;" horiz-adv-x="2095" d="M59 686l199 102q64 -88 164 -88q72 0 98.5 32t26.5 66q0 91 -141 91h-115v176h102q92 0 124 22.5t32 63.5q0 28 -27.5 48.5t-85.5 20.5q-103 0 -168 -78l-182 107q61 74 143 115t224 41q172 0 255 -67t83 -159q0 -71 -38 -116t-124 -74q92 -23 134 -77t42 -126 q0 -137 -102.5 -203.5t-282.5 -66.5q-127 0 -221.5 49t-139.5 121zM592 -51l747 1489h238l-750 -1489h-235zM1202 160v166l492 530h227v-524h115v-172h-115v-160h-232v160h-487zM1433 332h256v276z" />
<glyph unicode="&#xbf;" horiz-adv-x="1071" d="M72 0q0 105 39 185t112.5 145.5t243.5 154.5v179h272v-302q-55 -28 -120.5 -61t-122 -75t-95.5 -94t-39 -120q0 -78 44.5 -122t152.5 -44q90 0 144.5 37t99.5 111l233 -139q-69 -123 -184 -186.5t-291 -63.5q-237 0 -363 103.5t-126 291.5zM436 954q0 86 39 120t125 34 q94 0 128 -38t34 -116q0 -82 -36 -117.5t-126 -35.5q-92 0 -128 35.5t-36 117.5z" />
<glyph unicode="&#xc0;" horiz-adv-x="1337" d="M27 0l458 1384h367l459 -1384h-289l-92 281h-533l-90 -281h-280zM373 1905h315l188 -361h-204zM477 528h373l-186 572z" />
<glyph unicode="&#xc1;" horiz-adv-x="1337" d="M27 0l458 1384h367l459 -1384h-289l-92 281h-533l-90 -281h-280zM477 528h373l-186 572zM491 1544l189 361h315l-299 -361h-205z" />
<glyph unicode="&#xc2;" horiz-adv-x="1337" d="M27 0l458 1384h367l459 -1384h-289l-92 281h-533l-90 -281h-280zM305 1544l235 361h244l236 -361h-211l-146 174l-149 -174h-209zM477 528h373l-186 572z" />
<glyph unicode="&#xc3;" horiz-adv-x="1337" d="M27 0l458 1384h367l459 -1384h-289l-92 281h-533l-90 -281h-280zM254 1567q5 155 73 236t189 81q61 0 104 -22.5t77 -48t62.5 -48t61.5 -22.5q35 0 51.5 35t16.5 92h182q-10 -165 -75.5 -243.5t-188.5 -78.5q-66 0 -109 22.5t-75.5 50.5t-59.5 50.5t-60 22.5 q-67 0 -67 -127h-182zM477 528h373l-186 572z" />
<glyph unicode="&#xc4;" horiz-adv-x="1337" d="M27 0l458 1384h367l459 -1384h-289l-92 281h-533l-90 -281h-280zM293 1671q0 70 31.5 100.5t109.5 30.5t111.5 -29.5t33.5 -101.5q0 -73 -35.5 -102t-109.5 -29q-82 0 -111.5 34t-29.5 97zM477 528h373l-186 572zM737 1671q0 70 31.5 100.5t109.5 30.5t112 -29.5 t34 -101.5q0 -73 -36 -102t-110 -29q-82 0 -111.5 34t-29.5 97z" />
<glyph unicode="&#xc5;" horiz-adv-x="1337" d="M27 0l458 1384h367l459 -1384h-289l-92 281h-533l-90 -281h-280zM434 1716q0 107 57.5 166.5t171.5 59.5q119 0 175.5 -60.5t56.5 -165.5q0 -110 -59.5 -167.5t-172.5 -57.5q-117 0 -173 60.5t-56 164.5zM477 528h373l-186 572zM577 1716q0 -90 86 -90q88 0 88 90t-88 90 q-86 0 -86 -90z" />
<glyph unicode="&#xc6;" horiz-adv-x="1810" d="M20 0l555 1384h1135v-249h-567v-301h469v-250h-469v-326h567v-258h-850v360h-409l-144 -360h-287zM547 608h313v527h-104z" />
<glyph unicode="&#xc7;" horiz-adv-x="1333" d="M96 692q0 369 163 545t470 176q203 0 331 -68.5t195 -179.5l-219 -170q-48 72 -88 104t-91 48t-122 16q-170 0 -259 -108.5t-89 -362.5q0 -237 83.5 -354t266.5 -117q123 0 191.5 47t124.5 125l223 -164q-66 -96 -165 -164.5t-263 -87.5q61 -14 103 -61t42 -121 q0 -190 -286 -190q-172 0 -265 45l70 145q106 -45 193 -45q53 0 74.5 11.5t21.5 35.5q0 63 -180 72l53 104q-578 37 -578 719z" />
<glyph unicode="&#xc8;" horiz-adv-x="1149" d="M150 0v1384h899v-249h-617v-295h520v-250h-520v-332h617v-258h-899zM267 1905h315l188 -361h-204z" />
<glyph unicode="&#xc9;" horiz-adv-x="1149" d="M150 0v1384h899v-249h-617v-295h520v-250h-520v-332h617v-258h-899zM426 1544l189 361h315l-299 -361h-205z" />
<glyph unicode="&#xca;" horiz-adv-x="1149" d="M150 0v1384h899v-249h-617v-295h520v-250h-520v-332h617v-258h-899zM236 1544l235 361h244l236 -361h-211l-146 174l-149 -174h-209z" />
<glyph unicode="&#xcb;" horiz-adv-x="1149" d="M150 0v1384h899v-249h-617v-295h520v-250h-520v-332h617v-258h-899zM228 1671q0 70 31.5 100.5t109.5 30.5t111.5 -29.5t33.5 -101.5q0 -73 -35.5 -102t-109.5 -29q-82 0 -111.5 34t-29.5 97zM672 1671q0 70 31.5 100.5t109.5 30.5t112 -29.5t34 -101.5q0 -73 -36 -102 t-110 -29q-82 0 -111.5 34t-29.5 97z" />
<glyph unicode="&#xcc;" horiz-adv-x="872" d="M80 1905h315l188 -361h-204zM102 0v217h193v950h-193v217h668v-217h-192v-950h192v-217h-668z" />
<glyph unicode="&#xcd;" horiz-adv-x="872" d="M102 0v217h193v950h-193v217h668v-217h-192v-950h192v-217h-668zM270 1544l189 361h315l-299 -361h-205z" />
<glyph unicode="&#xce;" horiz-adv-x="872" d="M78 1544l235 361h244l236 -361h-211l-146 174l-149 -174h-209zM102 0v217h193v950h-193v217h668v-217h-192v-950h192v-217h-668z" />
<glyph unicode="&#xcf;" horiz-adv-x="872" d="M72 1671q0 70 31.5 100.5t109.5 30.5t111.5 -29.5t33.5 -101.5q0 -73 -35.5 -102t-109.5 -29q-82 0 -111.5 34t-29.5 97zM102 0v217h193v950h-193v217h668v-217h-192v-950h192v-217h-668zM516 1671q0 70 31.5 100.5t109.5 30.5t112 -29.5t34 -101.5q0 -73 -36 -102 t-110 -29q-82 0 -111.5 34t-29.5 97z" />
<glyph unicode="&#xd0;" horiz-adv-x="1399" d="M2 580v225h148v579h434q263 0 416.5 -70.5t228 -222.5t74.5 -399q0 -250 -74.5 -402t-224.5 -221t-418 -69h-436v580h-148zM432 258h127q184 0 278 40t134.5 130t40.5 266t-39 264.5t-132 128t-282 39.5h-127v-321h322v-225h-322v-322z" />
<glyph unicode="&#xd1;" horiz-adv-x="1411" d="M150 0v1384h366l469 -933v933h277v-1384h-332l-504 989v-989h-276zM285 1526q5 155 73 236t189 81q61 0 104 -22.5t77 -48t62.5 -48t61.5 -22.5q35 0 51.5 35t16.5 92h182q-10 -165 -75.5 -243.5t-188.5 -78.5q-66 0 -109 22.5t-75.5 50.5t-59.5 50.5t-60 22.5 q-67 0 -67 -127h-182z" />
<glyph unicode="&#xd2;" horiz-adv-x="1364" d="M86 692q0 344 144.5 532.5t451.5 188.5q309 0 452.5 -188.5t143.5 -532.5q0 -361 -152.5 -541t-443.5 -180q-307 0 -451.5 189.5t-144.5 531.5zM371 1905h315l188 -361h-204zM377 692q0 -246 70.5 -358.5t234.5 -112.5q166 0 235.5 112.5t69.5 358.5t-69.5 358.5 t-235.5 112.5t-235.5 -112.5t-69.5 -358.5z" />
<glyph unicode="&#xd3;" horiz-adv-x="1364" d="M86 692q0 344 144.5 532.5t451.5 188.5q309 0 452.5 -188.5t143.5 -532.5q0 -361 -152.5 -541t-443.5 -180q-307 0 -451.5 189.5t-144.5 531.5zM377 692q0 -246 70.5 -358.5t234.5 -112.5q166 0 235.5 112.5t69.5 358.5t-69.5 358.5t-235.5 112.5t-235.5 -112.5 t-69.5 -358.5zM530 1544l189 361h315l-299 -361h-205z" />
<glyph unicode="&#xd4;" horiz-adv-x="1364" d="M86 692q0 344 144.5 532.5t451.5 188.5q309 0 452.5 -188.5t143.5 -532.5q0 -361 -152.5 -541t-443.5 -180q-307 0 -451.5 189.5t-144.5 531.5zM334 1544l235 361h244l236 -361h-211l-146 174l-149 -174h-209zM377 692q0 -246 70.5 -358.5t234.5 -112.5 q166 0 235.5 112.5t69.5 358.5t-69.5 358.5t-235.5 112.5t-235.5 -112.5t-69.5 -358.5z" />
<glyph unicode="&#xd5;" horiz-adv-x="1364" d="M86 692q0 344 144.5 532.5t451.5 188.5q309 0 452.5 -188.5t143.5 -532.5q0 -361 -152.5 -541t-443.5 -180q-307 0 -451.5 189.5t-144.5 531.5zM283 1567q5 155 73 236t189 81q61 0 104 -22.5t77 -48t62.5 -48t61.5 -22.5q35 0 51.5 35t16.5 92h182 q-10 -165 -75.5 -243.5t-188.5 -78.5q-66 0 -109 22.5t-75.5 50.5t-59.5 50.5t-60 22.5q-67 0 -67 -127h-182zM377 692q0 -246 70.5 -358.5t234.5 -112.5q166 0 235.5 112.5t69.5 358.5t-69.5 358.5t-235.5 112.5t-235.5 -112.5t-69.5 -358.5z" />
<glyph unicode="&#xd6;" horiz-adv-x="1364" d="M86 692q0 344 144.5 532.5t451.5 188.5q309 0 452.5 -188.5t143.5 -532.5q0 -361 -152.5 -541t-443.5 -180q-307 0 -451.5 189.5t-144.5 531.5zM332 1671q0 70 31.5 100.5t109.5 30.5t111.5 -29.5t33.5 -101.5q0 -73 -35.5 -102t-109.5 -29q-82 0 -111.5 34t-29.5 97z M377 692q0 -246 70.5 -358.5t234.5 -112.5q166 0 235.5 112.5t69.5 358.5t-69.5 358.5t-235.5 112.5t-235.5 -112.5t-69.5 -358.5zM776 1671q0 70 31.5 100.5t109.5 30.5t112 -29.5t34 -101.5q0 -73 -36 -102t-110 -29q-82 0 -111.5 34t-29.5 97z" />
<glyph unicode="&#xd7;" horiz-adv-x="1427" d="M129 145l438 437l-438 436l145 145l439 -436l438 436l145 -145l-438 -436l438 -437l-145 -145l-438 438l-439 -438z" />
<glyph unicode="&#xd8;" horiz-adv-x="1364" d="M27 -115l194 285q-135 180 -135 522q0 344 144.5 532.5t451.5 188.5q201 0 334 -84l108 160h199l-184 -270q139 -182 139 -527q0 -361 -152.5 -541t-443.5 -180q-207 0 -338 86l-117 -172h-200zM377 692q0 -157 26 -256l461 674q-69 53 -182 53q-166 0 -235.5 -112.5 t-69.5 -358.5zM496 276q67 -55 186 -55q166 0 235.5 112.5t69.5 358.5q0 158 -29 262z" />
<glyph unicode="&#xd9;" horiz-adv-x="1438" d="M150 578v806h282v-786q0 -141 27 -222t86 -119t172 -38q161 0 225 85.5t64 289.5v790h282v-806q0 -325 -132 -467t-437 -142q-302 0 -435.5 140.5t-133.5 468.5zM392 1905h315l188 -361h-204z" />
<glyph unicode="&#xda;" horiz-adv-x="1438" d="M150 578v806h282v-786q0 -141 27 -222t86 -119t172 -38q161 0 225 85.5t64 289.5v790h282v-806q0 -325 -132 -467t-437 -142q-302 0 -435.5 140.5t-133.5 468.5zM551 1544l189 361h315l-299 -361h-205z" />
<glyph unicode="&#xdb;" horiz-adv-x="1438" d="M150 578v806h282v-786q0 -141 27 -222t86 -119t172 -38q161 0 225 85.5t64 289.5v790h282v-806q0 -325 -132 -467t-437 -142q-302 0 -435.5 140.5t-133.5 468.5zM365 1544l235 361h244l236 -361h-211l-146 174l-149 -174h-209z" />
<glyph unicode="&#xdc;" horiz-adv-x="1438" d="M150 578v806h282v-786q0 -141 27 -222t86 -119t172 -38q161 0 225 85.5t64 289.5v790h282v-806q0 -325 -132 -467t-437 -142q-302 0 -435.5 140.5t-133.5 468.5zM353 1671q0 70 31.5 100.5t109.5 30.5t111.5 -29.5t33.5 -101.5q0 -73 -35.5 -102t-109.5 -29 q-82 0 -111.5 34t-29.5 97zM797 1671q0 70 31.5 100.5t109.5 30.5t112 -29.5t34 -101.5q0 -73 -36 -102t-110 -29q-82 0 -111.5 34t-29.5 97z" />
<glyph unicode="&#xdd;" horiz-adv-x="1188" d="M18 1384h308l270 -579l276 579h297l-434 -856v-528h-284v522zM424 1544l189 361h315l-299 -361h-205z" />
<glyph unicode="&#xde;" horiz-adv-x="1239" d="M150 0v1384h282v-200h238q235 0 363 -109.5t128 -355.5q0 -250 -117.5 -371t-381.5 -121h-230v-227h-282zM432 473h115q155 0 214 21.5t84 71.5t25 151q0 81 -30 129.5t-91 70t-176 21.5h-141v-465z" />
<glyph unicode="&#xdf;" d="M145 0v1020q0 252 117.5 376t355.5 124q203 0 313.5 -91t110.5 -255q0 -123 -53 -196t-129 -106q122 -27 193 -136.5t71 -262.5q0 -250 -93 -377t-312 -127q-47 0 -103.5 10.5t-89.5 20.5v227q86 -30 154 -30q88 0 131 63.5t43 220.5q0 108 -28.5 160.5t-92.5 74 t-190 21.5v224q93 0 143 18.5t72 57t22 118.5q0 70 -43 106.5t-123 36.5q-104 0 -157.5 -59t-53.5 -211v-1028h-258z" />
<glyph unicode="&#xe0;" horiz-adv-x="1139" d="M84 295q0 112 45.5 185t135 114.5t257.5 58.5l221 21v47q0 88 -53 120.5t-155 32.5q-84 0 -144.5 -28t-89.5 -80l-201 129q53 89 166 136.5t273 47.5q245 0 353.5 -85.5t108.5 -280.5v-713h-237v109q-153 -140 -328 -140q-174 0 -263 91.5t-89 234.5zM207 1569h315 l188 -361h-204zM350 299q0 -72 40 -98.5t106 -26.5q47 0 114.5 29.5t132.5 83.5v200l-131 -12q-139 -12 -200.5 -53t-61.5 -123z" />
<glyph unicode="&#xe1;" horiz-adv-x="1139" d="M84 295q0 112 45.5 185t135 114.5t257.5 58.5l221 21v47q0 88 -53 120.5t-155 32.5q-84 0 -144.5 -28t-89.5 -80l-201 129q53 89 166 136.5t273 47.5q245 0 353.5 -85.5t108.5 -280.5v-713h-237v109q-153 -140 -328 -140q-174 0 -263 91.5t-89 234.5zM350 299 q0 -72 40 -98.5t106 -26.5q47 0 114.5 29.5t132.5 83.5v200l-131 -12q-139 -12 -200.5 -53t-61.5 -123zM366 1208l189 361h315l-299 -361h-205z" />
<glyph unicode="&#xe2;" horiz-adv-x="1139" d="M84 295q0 112 45.5 185t135 114.5t257.5 58.5l221 21v47q0 88 -53 120.5t-155 32.5q-84 0 -144.5 -28t-89.5 -80l-201 129q53 89 166 136.5t273 47.5q245 0 353.5 -85.5t108.5 -280.5v-713h-237v109q-153 -140 -328 -140q-174 0 -263 91.5t-89 234.5zM195 1208l235 361 h244l236 -361h-211l-146 174l-149 -174h-209zM350 299q0 -72 40 -98.5t106 -26.5q47 0 114.5 29.5t132.5 83.5v200l-131 -12q-139 -12 -200.5 -53t-61.5 -123z" />
<glyph unicode="&#xe3;" horiz-adv-x="1139" d="M84 295q0 112 45.5 185t135 114.5t257.5 58.5l221 21v47q0 88 -53 120.5t-155 32.5q-84 0 -144.5 -28t-89.5 -80l-201 129q53 89 166 136.5t273 47.5q245 0 353.5 -85.5t108.5 -280.5v-713h-237v109q-153 -140 -328 -140q-174 0 -263 91.5t-89 234.5zM150 1231 q5 155 73 236t189 81q61 0 104 -22.5t77 -48t62.5 -48t61.5 -22.5q35 0 51.5 35t16.5 92h182q-10 -165 -75.5 -243.5t-188.5 -78.5q-66 0 -109 22.5t-75.5 50.5t-59.5 50.5t-60 22.5q-67 0 -67 -127h-182zM350 299q0 -72 40 -98.5t106 -26.5q47 0 114.5 29.5t132.5 83.5v200 l-131 -12q-139 -12 -200.5 -53t-61.5 -123z" />
<glyph unicode="&#xe4;" horiz-adv-x="1139" d="M84 295q0 112 45.5 185t135 114.5t257.5 58.5l221 21v47q0 88 -53 120.5t-155 32.5q-84 0 -144.5 -28t-89.5 -80l-201 129q53 89 166 136.5t273 47.5q245 0 353.5 -85.5t108.5 -280.5v-713h-237v109q-153 -140 -328 -140q-174 0 -263 91.5t-89 234.5zM168 1335 q0 70 31.5 100.5t109.5 30.5t111.5 -29.5t33.5 -101.5q0 -73 -35.5 -102t-109.5 -29q-82 0 -111.5 34t-29.5 97zM350 299q0 -72 40 -98.5t106 -26.5q47 0 114.5 29.5t132.5 83.5v200l-131 -12q-139 -12 -200.5 -53t-61.5 -123zM612 1335q0 70 31.5 100.5t109.5 30.5 t112 -29.5t34 -101.5q0 -73 -36 -102t-110 -29q-82 0 -111.5 34t-29.5 97z" />
<glyph unicode="&#xe5;" horiz-adv-x="1139" d="M84 295q0 112 45.5 185t135 114.5t257.5 58.5l221 21v47q0 88 -53 120.5t-155 32.5q-84 0 -144.5 -28t-89.5 -80l-201 129q53 89 166 136.5t273 47.5q245 0 353.5 -85.5t108.5 -280.5v-713h-237v109q-153 -140 -328 -140q-174 0 -263 91.5t-89 234.5zM309 1378 q0 107 57.5 166.5t171.5 59.5q119 0 175.5 -60.5t56.5 -165.5q0 -110 -59.5 -167.5t-172.5 -57.5q-117 0 -173 60.5t-56 164.5zM350 299q0 -72 40 -98.5t106 -26.5q47 0 114.5 29.5t132.5 83.5v200l-131 -12q-139 -12 -200.5 -53t-61.5 -123zM452 1378q0 -90 86 -90 q88 0 88 90t-88 90q-86 0 -86 -90z" />
<glyph unicode="&#xe6;" horiz-adv-x="1786" d="M84 303q0 157 105.5 244t332.5 106l221 21v47q0 86 -52 119.5t-148 33.5q-109 0 -162 -32.5t-80 -75.5l-201 129q53 89 164.5 136.5t276.5 47.5q254 0 356 -123q121 123 350 123q220 0 335.5 -127.5t115.5 -367.5v-127h-697q7 -140 67 -201t196 -61q73 0 130.5 19 t100.5 73l193 -137q-64 -91 -162.5 -136t-257.5 -45q-299 0 -428 168q-97 -82 -196 -125t-212 -43q-170 0 -259 91.5t-89 242.5zM350 299q0 -125 139 -125q64 0 140 25.5t141 76.5q-13 40 -20 113t-7 98l-131 -12q-139 -12 -200.5 -53t-61.5 -123zM1008 635h434 q0 239 -211 239q-113 0 -160 -64.5t-63 -174.5z" />
<glyph unicode="&#xe7;" horiz-adv-x="1059" d="M92 518q0 265 126 413t378 148q135 0 240.5 -44t160.5 -136l-192 -137q-35 47 -82 69.5t-121 22.5q-132 0 -188 -81t-56 -251t57.5 -248.5t196.5 -78.5q60 0 110 17t95 75l195 -137q-105 -153 -318 -177q56 -16 93.5 -62t37.5 -116q0 -190 -286 -190q-172 0 -265 45 l70 145q106 -45 193 -45q53 0 74.5 11.5t21.5 35.5q0 63 -180 72l55 106q-416 56 -416 543z" />
<glyph unicode="&#xe8;" horiz-adv-x="1143" d="M92 516q0 563 504 563q224 0 341.5 -126.5t117.5 -368.5v-127h-697q7 -140 68 -201t192 -61q76 0 133.5 19t100.5 73l192 -137q-63 -91 -163.5 -136t-274.5 -45q-259 0 -386.5 136t-127.5 411zM248 1569h315l188 -361h-204zM365 635h434q0 239 -209 239q-69 0 -113 -23.5 t-70.5 -70t-41.5 -145.5z" />
<glyph unicode="&#xe9;" horiz-adv-x="1143" d="M92 516q0 563 504 563q224 0 341.5 -126.5t117.5 -368.5v-127h-697q7 -140 68 -201t192 -61q76 0 133.5 19t100.5 73l192 -137q-63 -91 -163.5 -136t-274.5 -45q-259 0 -386.5 136t-127.5 411zM365 635h434q0 239 -209 239q-69 0 -113 -23.5t-70.5 -70t-41.5 -145.5z M407 1208l189 361h315l-299 -361h-205z" />
<glyph unicode="&#xea;" horiz-adv-x="1143" d="M92 516q0 563 504 563q224 0 341.5 -126.5t117.5 -368.5v-127h-697q7 -140 68 -201t192 -61q76 0 133.5 19t100.5 73l192 -137q-63 -91 -163.5 -136t-274.5 -45q-259 0 -386.5 136t-127.5 411zM232 1208l235 361h244l236 -361h-211l-146 174l-149 -174h-209zM365 635h434 q0 239 -209 239q-69 0 -113 -23.5t-70.5 -70t-41.5 -145.5z" />
<glyph unicode="&#xeb;" horiz-adv-x="1143" d="M92 516q0 563 504 563q224 0 341.5 -126.5t117.5 -368.5v-127h-697q7 -140 68 -201t192 -61q76 0 133.5 19t100.5 73l192 -137q-63 -91 -163.5 -136t-274.5 -45q-259 0 -386.5 136t-127.5 411zM220 1335q0 70 31.5 100.5t109.5 30.5t111.5 -29.5t33.5 -101.5 q0 -73 -35.5 -102t-109.5 -29q-82 0 -111.5 34t-29.5 97zM365 635h434q0 239 -209 239q-69 0 -113 -23.5t-70.5 -70t-41.5 -145.5zM664 1335q0 70 31.5 100.5t109.5 30.5t112 -29.5t34 -101.5q0 -73 -36 -102t-110 -29q-82 0 -111.5 34t-29.5 97z" />
<glyph unicode="&#xec;" horiz-adv-x="549" d="M-53 1569h315l188 -361h-204zM145 0v1049h258v-1049h-258z" />
<glyph unicode="&#xed;" horiz-adv-x="549" d="M127 1208l189 361h315l-299 -361h-205zM145 0v1049h258v-1049h-258z" />
<glyph unicode="&#xee;" horiz-adv-x="549" d="M-80 1208l235 361h244l236 -361h-211l-146 174l-149 -174h-209zM145 0v1049h258v-1049h-258z" />
<glyph unicode="&#xef;" horiz-adv-x="549" d="M-92 1335q0 70 31.5 100.5t109.5 30.5t111.5 -29.5t33.5 -101.5q0 -73 -35.5 -102t-109.5 -29q-82 0 -111.5 34t-29.5 97zM145 0v1049h258v-1049h-258zM352 1335q0 70 31.5 100.5t109.5 30.5t112 -29.5t34 -101.5q0 -73 -36 -102t-110 -29q-82 0 -111.5 34t-29.5 97z" />
<glyph unicode="&#xf0;" horiz-adv-x="1190" d="M92 520q0 156 55 278t158 186.5t238 64.5q41 0 94 -18.5t94 -49.5q-15 39 -65.5 122t-90.5 130l-225 -94l-67 149l180 76q-34 48 -184 156h274q49 -29 98 -78l187 78l69 -148l-131 -55q142 -147 232 -360t90 -435q0 -267 -126.5 -410t-375.5 -143q-247 0 -375.5 138 t-128.5 413zM358 520q0 -158 54.5 -241.5t183.5 -83.5t182 83.5t53 243.5q0 303 -237 303q-116 0 -176 -77.5t-60 -227.5z" />
<glyph unicode="&#xf1;" d="M145 0v1049h258v-136q82 82 175 124t182 42q161 0 240 -88t79 -291v-700h-258v578q0 164 -29.5 219t-111.5 55q-115 0 -277 -152v-700h-258zM197 1231q5 155 73 236t189 81q61 0 104 -22.5t77 -48t62.5 -48t61.5 -22.5q35 0 51.5 35t16.5 92h182q-10 -165 -75.5 -243.5 t-188.5 -78.5q-66 0 -109 22.5t-75.5 50.5t-59.5 50.5t-60 22.5q-67 0 -67 -127h-182z" />
<glyph unicode="&#xf2;" horiz-adv-x="1190" d="M92 522q0 266 121 411.5t383 145.5q260 0 381 -145.5t121 -411.5q0 -262 -121 -407.5t-381 -145.5q-504 0 -504 553zM269 1569h315l188 -361h-204zM358 522q0 -168 55.5 -247.5t182.5 -79.5q125 0 180 78.5t55 248.5q0 173 -54 252.5t-181 79.5q-126 0 -182 -81.5 t-56 -250.5z" />
<glyph unicode="&#xf3;" horiz-adv-x="1190" d="M92 522q0 266 121 411.5t383 145.5q260 0 381 -145.5t121 -411.5q0 -262 -121 -407.5t-381 -145.5q-504 0 -504 553zM358 522q0 -168 55.5 -247.5t182.5 -79.5q125 0 180 78.5t55 248.5q0 173 -54 252.5t-181 79.5q-126 0 -182 -81.5t-56 -250.5zM428 1208l189 361h315 l-299 -361h-205z" />
<glyph unicode="&#xf4;" horiz-adv-x="1190" d="M92 522q0 266 121 411.5t383 145.5q260 0 381 -145.5t121 -411.5q0 -262 -121 -407.5t-381 -145.5q-504 0 -504 553zM242 1208l235 361h244l236 -361h-211l-146 174l-149 -174h-209zM358 522q0 -168 55.5 -247.5t182.5 -79.5q125 0 180 78.5t55 248.5q0 173 -54 252.5 t-181 79.5q-126 0 -182 -81.5t-56 -250.5z" />
<glyph unicode="&#xf5;" horiz-adv-x="1190" d="M92 522q0 266 121 411.5t383 145.5q260 0 381 -145.5t121 -411.5q0 -262 -121 -407.5t-381 -145.5q-504 0 -504 553zM191 1231q5 155 73 236t189 81q61 0 104 -22.5t77 -48t62.5 -48t61.5 -22.5q35 0 51.5 35t16.5 92h182q-10 -165 -75.5 -243.5t-188.5 -78.5 q-66 0 -109 22.5t-75.5 50.5t-59.5 50.5t-60 22.5q-67 0 -67 -127h-182zM358 522q0 -168 55.5 -247.5t182.5 -79.5q125 0 180 78.5t55 248.5q0 173 -54 252.5t-181 79.5q-126 0 -182 -81.5t-56 -250.5z" />
<glyph unicode="&#xf6;" horiz-adv-x="1190" d="M92 522q0 266 121 411.5t383 145.5q260 0 381 -145.5t121 -411.5q0 -262 -121 -407.5t-381 -145.5q-504 0 -504 553zM230 1335q0 70 31.5 100.5t109.5 30.5t111.5 -29.5t33.5 -101.5q0 -73 -35.5 -102t-109.5 -29q-82 0 -111.5 34t-29.5 97zM358 522q0 -168 55.5 -247.5 t182.5 -79.5q125 0 180 78.5t55 248.5q0 173 -54 252.5t-181 79.5q-126 0 -182 -81.5t-56 -250.5zM674 1335q0 70 31.5 100.5t109.5 30.5t112 -29.5t34 -101.5q0 -73 -36 -102t-110 -29q-82 0 -111.5 34t-29.5 97z" />
<glyph unicode="&#xf7;" horiz-adv-x="1427" d="M133 479v205h1161v-205h-1161zM592 2v252h246v-252h-246zM592 911v252h246v-252h-246z" />
<glyph unicode="&#xf8;" horiz-adv-x="1190" d="M92 522q0 266 121 411.5t383 145.5q141 0 246 -47l61 92h182l-118 -180q131 -145 131 -422q0 -262 -121 -407.5t-381 -145.5q-144 0 -248 45l-59 -90h-183l117 176q-131 141 -131 422zM358 522q0 -103 23 -184l328 493q-45 23 -113 23q-126 0 -182 -81.5t-56 -250.5z M483 215q47 -20 113 -20q125 0 180 78.5t55 248.5q0 108 -22 185z" />
<glyph unicode="&#xf9;" d="M137 348v701h258v-578q0 -111 13 -170t42.5 -81.5t86.5 -22.5q115 0 276 151v701h258v-1049h-258v135q-68 -73 -166.5 -119.5t-189.5 -46.5q-178 0 -249 98.5t-71 280.5zM281 1569h315l188 -361h-204z" />
<glyph unicode="&#xfa;" d="M137 348v701h258v-578q0 -111 13 -170t42.5 -81.5t86.5 -22.5q115 0 276 151v701h258v-1049h-258v135q-68 -73 -166.5 -119.5t-189.5 -46.5q-178 0 -249 98.5t-71 280.5zM440 1208l189 361h315l-299 -361h-205z" />
<glyph unicode="&#xfb;" d="M137 348v701h258v-578q0 -111 13 -170t42.5 -81.5t86.5 -22.5q115 0 276 151v701h258v-1049h-258v135q-68 -73 -166.5 -119.5t-189.5 -46.5q-178 0 -249 98.5t-71 280.5zM244 1208l235 361h244l236 -361h-211l-146 174l-149 -174h-209z" />
<glyph unicode="&#xfc;" d="M137 348v701h258v-578q0 -111 13 -170t42.5 -81.5t86.5 -22.5q115 0 276 151v701h258v-1049h-258v135q-68 -73 -166.5 -119.5t-189.5 -46.5q-178 0 -249 98.5t-71 280.5zM232 1335q0 70 31.5 100.5t109.5 30.5t111.5 -29.5t33.5 -101.5q0 -73 -35.5 -102t-109.5 -29 q-82 0 -111.5 34t-29.5 97zM676 1335q0 70 31.5 100.5t109.5 30.5t112 -29.5t34 -101.5q0 -73 -36 -102t-110 -29q-82 0 -111.5 34t-29.5 97z" />
<glyph unicode="&#xfd;" horiz-adv-x="1085" d="M-20 -365l55 224q84 -29 151 -29q58 0 102 35t91 145l27 62l-379 977h268l248 -670l254 670h262l-451 -1121q-55 -135 -107 -200t-121.5 -94t-174.5 -29q-114 0 -225 30zM368 1208l189 361h315l-299 -361h-205z" />
<glyph unicode="&#xfe;" d="M145 -395v1884h258v-533q127 123 316 123q198 0 301.5 -141.5t103.5 -405.5q0 -169 -51 -298t-146 -197t-227 -68q-174 0 -297 109v-473h-258zM403 291q41 -37 101.5 -65.5t124.5 -28.5q106 0 167.5 90.5t61.5 240.5q0 153 -53 238.5t-158 85.5q-63 0 -129.5 -29.5 t-114.5 -72.5v-459z" />
<glyph unicode="&#xff;" horiz-adv-x="1085" d="M-20 -365l55 224q84 -29 151 -29q58 0 102 35t91 145l27 62l-379 977h268l248 -670l254 670h262l-451 -1121q-55 -135 -107 -200t-121.5 -94t-174.5 -29q-114 0 -225 30zM179 1335q0 70 31.5 100.5t109.5 30.5t111.5 -29.5t33.5 -101.5q0 -73 -35.5 -102t-109.5 -29 q-82 0 -111.5 34t-29.5 97zM623 1335q0 70 31.5 100.5t109.5 30.5t112 -29.5t34 -101.5q0 -73 -36 -102t-110 -29q-82 0 -111.5 34t-29.5 97z" />
<glyph unicode="&#x152;" horiz-adv-x="1919" d="M96 692q0 344 151.5 532.5t459.5 188.5q121 0 247 -29h865v-249h-568v-301h467v-250h-467v-326h568v-258h-861q-106 -29 -251 -29q-312 0 -461.5 189.5t-149.5 531.5zM387 692q0 -246 78 -358.5t264 -112.5q78 0 130 14.5t108 49.5v813q-100 65 -238 65q-182 0 -262 -110 t-80 -361z" />
<glyph unicode="&#x153;" horiz-adv-x="1874" d="M92 522q0 269 121 413t373 144q244 0 377 -149q57 63 144 106t230 43q219 0 334 -128.5t115 -366.5v-127h-696q6 -140 66.5 -201t193.5 -61q73 0 131.5 19t101.5 73l193 -137q-64 -91 -162 -136t-260 -45q-264 0 -391 152q-139 -152 -367 -152q-264 0 -384 146.5 t-120 406.5zM358 522q0 -168 55.5 -247.5t182.5 -79.5q117 0 176 74.5t59 252.5q0 184 -58 258t-177 74q-126 0 -182 -81.5t-56 -250.5zM1096 635h434q0 239 -209 239q-68 0 -113 -23.5t-71 -70.5t-41 -145z" />
<glyph unicode="&#x178;" horiz-adv-x="1188" d="M18 1384h308l270 -579l276 579h297l-434 -856v-528h-284v522zM226 1671q0 70 31.5 100.5t109.5 30.5t111.5 -29.5t33.5 -101.5q0 -73 -35.5 -102t-109.5 -29q-82 0 -111.5 34t-29.5 97zM670 1671q0 70 31.5 100.5t109.5 30.5t112 -29.5t34 -101.5q0 -73 -36 -102 t-110 -29q-82 0 -111.5 34t-29.5 97z" />
<glyph unicode="&#x2c6;" horiz-adv-x="1044" d="M164 1208l235 361h244l236 -361h-211l-146 174l-149 -174h-209z" />
<glyph unicode="&#x2dc;" horiz-adv-x="1044" d="M113 1231q5 155 73 236t189 81q61 0 104 -22.5t77 -48t62.5 -48t61.5 -22.5q35 0 51.5 35t16.5 92h182q-10 -165 -75.5 -243.5t-188.5 -78.5q-66 0 -109 22.5t-75.5 50.5t-59.5 50.5t-60 22.5q-67 0 -67 -127h-182z" />
<glyph unicode="&#x2000;" horiz-adv-x="971" />
<glyph unicode="&#x2001;" horiz-adv-x="1942" />
<glyph unicode="&#x2002;" horiz-adv-x="971" />
<glyph unicode="&#x2003;" horiz-adv-x="1942" />
<glyph unicode="&#x2004;" horiz-adv-x="647" />
<glyph unicode="&#x2005;" horiz-adv-x="485" />
<glyph unicode="&#x2006;" horiz-adv-x="323" />
<glyph unicode="&#x2007;" horiz-adv-x="323" />
<glyph unicode="&#x2008;" horiz-adv-x="242" />
<glyph unicode="&#x2009;" horiz-adv-x="388" />
<glyph unicode="&#x200a;" horiz-adv-x="107" />
<glyph unicode="&#x2010;" horiz-adv-x="786" d="M82 399v254h623v-254h-623z" />
<glyph unicode="&#x2011;" horiz-adv-x="786" d="M82 399v254h623v-254h-623z" />
<glyph unicode="&#x2012;" horiz-adv-x="786" d="M82 399v254h623v-254h-623z" />
<glyph unicode="&#x2013;" horiz-adv-x="1044" d="M31 424v205h983v-205h-983z" />
<glyph unicode="&#x2014;" horiz-adv-x="2068" d="M31 424v205h2007v-205h-2007z" />
<glyph unicode="&#x2018;" horiz-adv-x="584" d="M129 967q0 123 42 234.5t91 182.5h193q-62 -86 -91.5 -164.5t-33.5 -117.5q65 -4 95 -42t30 -114q0 -74 -35 -117t-131 -43q-160 0 -160 181z" />
<glyph unicode="&#x2019;" horiz-adv-x="584" d="M129 815q61 86 91 165t34 118q-66 4 -95.5 42t-29.5 113q0 74 35 117t131 43q160 0 160 -180q0 -123 -42 -234.5t-91 -183.5h-193z" />
<glyph unicode="&#x201a;" horiz-adv-x="584" d="M129 145q0 74 35 117t131 43q160 0 160 -180q0 -123 -42 -234.5t-91 -183.5h-193q61 86 91 165t34 118q-66 4 -95.5 42t-29.5 113z" />
<glyph unicode="&#x201c;" horiz-adv-x="1047" d="M129 967q0 123 42 234.5t91 182.5h193q-62 -86 -91.5 -164.5t-33.5 -117.5q65 -4 95 -42t30 -114q0 -74 -35 -117t-131 -43q-160 0 -160 181zM592 967q0 123 42 234.5t91 182.5h193q-62 -86 -91.5 -164.5t-33.5 -117.5q65 -4 95 -42t30 -114q0 -74 -35 -117t-131 -43 q-160 0 -160 181z" />
<glyph unicode="&#x201d;" horiz-adv-x="1047" d="M129 815q61 86 91 165t34 118q-66 4 -95.5 42t-29.5 113q0 74 35 117t131 43q160 0 160 -180q0 -123 -42 -234.5t-91 -183.5h-193zM592 815q61 86 91 165t34 118q-66 4 -95.5 42t-29.5 113q0 74 35 117t131 43q160 0 160 -180q0 -123 -42 -234.5t-92 -183.5h-192z" />
<glyph unicode="&#x201e;" horiz-adv-x="1047" d="M129 145q0 74 35 117t131 43q160 0 160 -180q0 -123 -42 -234.5t-91 -183.5h-193q61 86 91 165t34 118q-66 4 -95.5 42t-29.5 113zM592 145q0 74 35 117t131 43q160 0 160 -180q0 -123 -42 -234.5t-92 -183.5h-192q61 86 91 165t34 118q-66 4 -95.5 42t-29.5 113z" />
<glyph unicode="&#x2022;" horiz-adv-x="760" d="M92 745q0 78 38.5 145t106.5 105.5t144 38.5q115 0 201 -83t86 -206q0 -118 -84 -202t-203 -84q-76 0 -143 37.5t-106.5 104.5t-39.5 144z" />
<glyph unicode="&#x2026;" horiz-adv-x="2068" d="M188 145q0 82 36 121t126 39q92 0 128 -38t36 -122q0 -86 -39 -122.5t-125 -36.5q-94 0 -128 41t-34 118zM870 145q0 82 36 121t126 39q92 0 128 -38t36 -122q0 -86 -39 -122.5t-125 -36.5q-94 0 -128 41t-34 118zM1552 145q0 82 36 121t126 39q92 0 128 -38t36 -122 q0 -86 -39 -122.5t-125 -36.5q-94 0 -128 41t-34 118z" />
<glyph unicode="&#x202f;" horiz-adv-x="388" />
<glyph unicode="&#x2039;" horiz-adv-x="862" d="M61 524l420 471h299l-420 -471l420 -471h-299z" />
<glyph unicode="&#x203a;" horiz-adv-x="862" d="M82 53l420 471l-420 471h299l420 -471l-420 -471h-299z" />
<glyph unicode="&#x205f;" horiz-adv-x="485" />
<glyph unicode="&#x20ac;" horiz-adv-x="1280" d="M20 444l39 191h58v119h-97l43 190h76q96 469 592 469q197 0 321 -68.5t189 -179.5l-201 -161q-53 78 -90.5 107.5t-85.5 44.5t-116 15q-132 0 -206.5 -55t-107.5 -172h522l-43 -190h-505v-119h487l-39 -191h-424q35 -127 110.5 -179t205.5 -52q92 0 162 40t143 146 l209 -149q-80 -118 -149 -174t-157 -80.5t-215 -24.5q-505 0 -602 473h-119z" />
<glyph unicode="&#x2122;" horiz-adv-x="1692" d="M43 1208v176h639v-176h-219v-538h-199v538h-221zM836 670v714h215l149 -303l152 303h215v-714h-193v391l-117 -232h-110l-119 234v-393h-192z" />
<glyph unicode="&#x25fc;" horiz-adv-x="1050" d="M0 0v1050h1050v-1050h-1050z" />
</font>
</defs>
</svg>
